  0
SECTION
  2
HEADER
  9
$ACADVER
  1
AC1015
  9
$ACADMAINTVER
 70
     6
  9
$DWGCODEPAGE
  3
ANSI_1252
  9
$INSBASE
 10
0.0
 20
0.0
 30
0.0
  9
$EXTMIN
 10
-0.939693
 20
-0.984808
 30
0.0
  9
$EXTMAX
 10
13.0
 20
12.984808
 30
0.0
  9
$LIMMIN
 10
0.0
 20
0.0
  9
$LIMMAX
 10
0.0
 20
0.0
  9
$ORTHOMODE
 70
     0
  9
$REGENMODE
 70
     1
  9
$FILLMODE
 70
     1
  9
$QTEXTMODE
 70
     0
  9
$MIRRTEXT
 70
     1
  9
$LTSCALE
 40
1.0
  9
$ATTMODE
 70
     1
  9
$TEXTSIZE
 40
0.2
  9
$TRACEWID
 40
0.05
  9
$TEXTSTYLE
  7
Standard
  9
$CLAYER
  8
0
  9
$CELTYPE
  6
Continuous
  9
$CECOLOR
 62
   256
  9
$CELTSCALE
 40
1.0
  9
$DISPSILH
 70
     0
  9
$DIMSCALE
 40
1.0
  9
$DIMASZ
 40
0.18
  9
$DIMEXO
 40
0.0625
  9
$DIMDLI
 40
0.38
  9
$DIMRND
 40
0.0
  9
$DIMDLE
 40
0.0
  9
$DIMEXE
 40
0.18
  9
$DIMTP
 40
0.0
  9
$DIMTM
 40
0.0
  9
$DIMTXT
 40
0.18
  9
$DIMCEN
 40
0.09
  9
$DIMTSZ
 40
0.0
  9
$DIMTOL
 70
     0
  9
$DIMLIM
 70
     0
  9
$DIMTIH
 70
     1
  9
$DIMTOH
 70
     1
  9
$DIMSE1
 70
     0
  9
$DIMSE2
 70
     0
  9
$DIMTAD
 70
     0
  9
$DIMZIN
 70
     0
  9
$DIMBLK
  1

  9
$DIMASO
 70
     1
  9
$DIMSHO
 70
     1
  9
$DIMPOST
  1

  9
$DIMAPOST
  1

  9
$DIMALT
 70
     0
  9
$DIMALTD
 70
     2
  9
$DIMALTF
 40
25.4
  9
$DIMLFAC
 40
1.0
  9
$DIMTOFL
 70
     0
  9
$DIMTVP
 40
0.0
  9
$DIMTIX
 70
     0
  9
$DIMSOXD
 70
     0
  9
$DIMSAH
 70
     0
  9
$DIMBLK1
  1

  9
$DIMBLK2
  1

  9
$DIMSTYLE
  2
Standard
  9
$DIMCLRD
 70
     0
  9
$DIMCLRE
 70
     0
  9
$DIMCLRT
 70
     0
  9
$DIMTFAC
 40
1.0
  9
$DIMGAP
 40
0.09
  9
$DIMJUST
 70
     0
  9
$DIMSD1
 70
     0
  9
$DIMSD2
 70
     0
  9
$DIMTOLJ
 70
     1
  9
$DIMTZIN
 70
     0
  9
$DIMALTZ
 70
     0
  9
$DIMALTTZ
 70
     0
  9
$DIMUPT
 70
     0
  9
$DIMDEC
 70
     4
  9
$DIMTDEC
 70
     4
  9
$DIMALTU
 70
     2
  9
$DIMALTTD
 70
     2
  9
$DIMTXSTY
  7
Standard
  9
$DIMAUNIT
 70
     0
  9
$DIMADEC
 70
     0
  9
$DIMALTRND
 40
0.0
  9
$DIMAZIN
 70
     0
  9
$DIMDSEP
 70
    46
  9
$DIMATFIT
 70
     3
  9
$DIMFRAC
 70
     0
  9
$DIMLDRBLK
  1

  9
$DIMLUNIT
 70
     2
  9
$DIMLWD
 70
    -2
  9
$DIMLWE
 70
    -2
  9
$DIMTMOVE
 70
     0
  9
$LUNITS
 70
     2
  9
$LUPREC
 70
     4
  9
$SKETCHINC
 40
0.1
  9
$FILLETRAD
 40
0.0
  9
$AUNITS
 70
     0
  9
$AUPREC
 70
     0
  9
$MENU
  1
acad
  9
$ELEVATION
 40
0.0
  9
$PELEVATION
 40
0.0
  9
$THICKNESS
 40
0.0
  9
$LIMCHECK
 70
     0
  9
$CHAMFERA
 40
0.0
  9
$CHAMFERB
 40
0.0
  9
$CHAMFERC
 40
0.0
  9
$CHAMFERD
 40
0.0
  9
$SKPOLY
 70
     0
  9
$TDCREATE
 40
2455688.452303241
  9
$TDUCREATE
 40
0.000000000
  9
$TDUPDATE
 40
2455688.452303241
  9
$TDUUPDATE
 40
0.000000000
  9
$TDINDWG
 40
0.0000000000
  9
$TDUSRTIMER
 40
0.0000000000
  9
$USRTIMER
 70
     1
  9
$ANGBASE
 50
0.0
  9
$ANGDIR
 70
     0
  9
$PDMODE
 70
     0
  9
$PDSIZE
 40
0.0
  9
$PLINEWID
 40
0.0
  9
$SPLFRAME
 70
     0
  9
$SPLINETYPE
 70
     6
  9
$SPLINESEGS
 70
     8
  9
$HANDSEED
  5
B1
  9
$SURFTAB1
 70
     6
  9
$SURFTAB2
 70
     6
  9
$SURFTYPE
 70
     6
  9
$SURFU
 70
     6
  9
$SURFV
 70
     6
  9
$UCSBASE
  2

  9
$UCSNAME
  2

  9
$UCSORG
 10
0.0
 20
0.0
 30
0.0
  9
$UCSXDIR
 10
1.0
 20
0.0
 30
0.0
  9
$UCSYDIR
 10
0.0
 20
1.0
 30
0.0
  9
$UCSORTHOREF
  2

  9
$UCSORTHOVIEW
 70
     0
  9
$UCSORGTOP
 10
0.0
 20
0.0
 30
0.0
  9
$UCSORGBOTTOM
 10
0.0
 20
0.0
 30
0.0
  9
$UCSORGLEFT
 10
0.0
 20
0.0
 30
0.0
  9
$UCSORGRIGHT
 10
0.0
 20
0.0
 30
0.0
  9
$UCSORGFRONT
 10
0.0
 20
0.0
 30
0.0
  9
$UCSORGBACK
 10
0.0
 20
0.0
 30
0.0
  9
$PUCSBASE
  2

  9
$PUCSNAME
  2

  9
$PUCSORG
 10
0.0
 20
0.0
 30
0.0
  9
$PUCSXDIR
 10
1.0
 20
0.0
 30
0.0
  9
$PUCSYDIR
 10
0.0
 20
1.0
 30
0.0
  9
$PUCSORTHOREF
  2

  9
$PUCSORTHOVIEW
 70
     0
  9
$PUCSORGTOP
 10
0.0
 20
0.0
 30
0.0
  9
$PUCSORGBOTTOM
 10
0.0
 20
0.0
 30
0.0
  9
$PUCSORGLEFT
 10
0.0
 20
0.0
 30
0.0
  9
$PUCSORGRIGHT
 10
0.0
 20
0.0
 30
0.0
  9
$PUCSORGFRONT
 10
0.0
 20
0.0
 30
0.0
  9
$PUCSORGBACK
 10
0.0
 20
0.0
 30
0.0
  9
$USERI1
 70
     0
  9
$USERI2
 70
     0
  9
$USERI3
 70
     0
  9
$USERI4
 70
     0
  9
$USERI5
 70
     0
  9
$USERR1
 40
0.0
  9
$USERR2
 40
0.0
  9
$USERR3
 40
0.0
  9
$USERR4
 40
0.0
  9
$USERR5
 40
0.0
  9
$WORLDVIEW
 70
     1
  9
$SHADEDGE
 70
     3
  9
$SHADEDIF
 70
    70
  9
$TILEMODE
 70
     1
  9
$MAXACTVP
 70
    16
  9
$PINSBASE
 10
0.0
 20
0.0
 30
0.0
  9
$PLIMCHECK
 70
     0
  9
$PEXTMIN
 10
1.000000E+20
 20
1.000000E+20
 30
1.000000E+20
  9
$PEXTMAX
 10
-1.000000E+20
 20
-1.000000E+20
 30
-1.000000E+20
  9
$PLIMMIN
 10
0.0
 20
0.0
  9
$PLIMMAX
 10
12.0
 20
9.0
  9
$UNITMODE
 70
     0
  9
$VISRETAIN
 70
     0
  9
$PLINEGEN
 70
     1
  9
$PSLTSCALE
 70
     0
  9
$TREEDEPTH
 70
  3020
  9
$CMLSTYLE
  2
Standard
  9
$CMLJUST
 70
     0
  9
$CMLSCALE
 40
1.0
  9
$PROXYGRAPHICS
 70
     0
  9
$MEASUREMENT
 70
     0
  9
$CELWEIGHT
370
     0
  9
$ENDCAPS
280
     0
  9
$JOINSTYLE
280
     0
  9
$LWDISPLAY
290
     0
  9
$INSUNITS
 70
     0
  9
$HYPERLINKBASE
  1

  9
$STYLESHEET
  1

  9
$XEDIT
290
     1
  9
$CEPSNTYPE
380
     0
  9
$PSTYLEMODE
290
     1
  9
$FINGERPRINTGUID
  2

  9
$VERSIONGUID
  2

  9
$EXTNAMES
290
     1
  9
$PSVPSCALE
 40
0.0
  0
ENDSEC
  0
SECTION
  2
CLASSES
  0
CLASS
  1
LWPOLYLINE
  2
AcDbPolyline
  3
AutoCAD 2000
 90
        0
280
     0
281
     1
  0
CLASS
  1
IMAGE
  2
AcDbRasterImage
  3
ISM
 90
      127
280
     0
281
     1
  0
CLASS
  1
OLE2FRAME
  2
AcDbOle2Frame
  3
AutoCAD 2000
 90
        0
280
     0
281
     1
  0
CLASS
  1
HATCH
  2
AcDbHatch
  3
AutoCAD 2000
 90
        0
280
     0
281
     1
  0
CLASS
  1
DICTIONARYVAR
  2
AcDbDictionaryVar
  3
AutoCAD 2000
 90
        0
280
     0
281
     0
  0
CLASS
  1
RASTERVARIABLES
  2
AcDbRasterVariables
  3
ISM
 90
        0
280
     0
281
     0
  0
CLASS
  1
IMAGEDEF
  2
AcDbRasterImageDef
  3
ISM
 90
        0
280
     0
281
     0
  0
CLASS
  1
IMAGEDEF_REACTOR
  2
AcDbRasterImageDefReactor
  3
ISM
 90
        1
280
     0
281
     0
  0
CLASS
  1
IDBUFFER
  2
AcDbIdBuffer
  3
AutoCAD 2000
 90
        0
280
     0
281
     0
  0
CLASS
  1
SPATIAL_FILTER
  2
AcDbSpatialFilter
  3
AutoCAD 2000
 90
        0
280
     0
281
     0
  0
CLASS
  1
XRECORD
  2
AcDbXrecord
  3
AutoCAD 2000
 90
        0
280
     0
281
     0
  0
CLASS
  1
SORTENTSTABLE
  2
AcDbSortentsTable
  3
AutoCAD 2000
 90
        0
280
     0
281
     0
  0
CLASS
  1
LAYER_INDEX
  2
AcDbLayerIndex
  3
AutoCAD 2000
 90
        0
280
     0
281
     0
  0
CLASS
  1
SPATIAL_INDEX
  2
AcDbSpatialIndex
  3
AutoCAD 2000
 90
        0
280
     0
281
     0
  0
CLASS
  1
OBJECT_PTR
  2
CAseDLPNTableRecord
  3
"ASE-LPNTableRecord"
 90
        1
280
     0
281
     0
  0
CLASS
  1
LAYOUT
  2
AcDbLayout
  3
AutoCAD 2000
 90
        0
280
     0
281
     0
  0
CLASS
  1
PLOTSETTINGS
  2
AcDbPlotSettings
  3
AutoCAD 2000
 90
        0
280
     0
281
     0
  0
CLASS
  1
ACDBDICTIONARYWDFLT
  2
AcDbDictionaryWithDefault
  3
AutoCAD 2000
 90
        0
280
     0
281
     0
  0
CLASS
  1
ACDBPLACEHOLDER
  2
AcDbPlaceHolder
  3
AutoCAD 2000
 90
        0
280
     0
281
     0
  0
CLASS
  1
VBA_PROJECT
  2
AcDbVbaProject
  3
acadvba
 90
        0
280
     0
281
     0
  0
CLASS
  1
WIPEOUT
  2
AcDbWipeout
  3
WipeOut|AutoCAD Express Tool|expresstools@autodesk.com
 90
      127
280
     0
281
     1
  0
CLASS
  1
WIPEOUTVARIABLES
  2
AcDbWipeoutVariables
  3
WipeOut|AutoCAD Express Tool|expresstools@autodesk.com
 90
        0
280
     0
281
     0
  0
CLASS
  1
RTEXT
  2
RText
  3
RText|AutoCAD Express Tool|expresstools@autodesk.com
 90
        0
280
     0
281
     1
  0
CLASS
  1
ARCALIGNEDTEXT
  2
AcDbArcAlignedText
  3
ATEXT|AutoCAD Express Tool|expresstools@autodesk.com
 90
        0
280
     0
281
     1
  0
ENDSEC
  0
SECTION
  2
TABLES
  0
TABLE
  2
VPORT
  5
7
100
AcDbSymbolTable
 70
     1
  0
VPORT
  5
15
100
AcDbSymbolTableRecord
100
AcDbViewportTableRecord
  2
*ACTIVE
 70
     0
 10
0.0
 20
0.0
 11
1.0
 21
1.0
 12
6.591288
 22
4.579184
 13
0.0
 23
0.0
 14
1.0
 24
1.0
 15
0.0
 25
0.0
 16
0.0
 26
0.0
 36
1.0
 17
0.0
 27
0.0
 37
0.0
 40
9.158369
 41
0.688564
 42
50.0
 43
0.0
 44
0.0
 50
0.0
 51
0.0
 71
     0
 72
   100
 73
     1
 74
     1
 75
     0
 76
     0
 77
     0
 78
     0
281
     0
 65
     0
110
0.0
120
0.0
130
0.0
111
1.0
121
0.0
131
0.0
112
0.0
122
1.0
132
0.0
345
0
346
0
 79
     0
146
0.0
  0
ENDTAB
  0
TABLE
  2
LTYPE
  5
4
100
AcDbSymbolTable
 70
     6
  0
LTYPE
  5
11
100
AcDbSymbolTableRecord
100
AcDbLinetypeTableRecord
  2
ByBlock
 70
    64
  3

 72
    65
 73
     0
 40
0.0
  0
LTYPE
  5
12
100
AcDbSymbolTableRecord
100
AcDbLinetypeTableRecord
  2
ByLayer
 70
    64
  3

 72
    65
 73
     0
 40
0.0
  0
LTYPE
  5
13
100
AcDbSymbolTableRecord
100
AcDbLinetypeTableRecord
  2
Continuous
 70
    64
  3
Solid line
 72
    65
 73
     0
 40
0.0
  0
LTYPE
  5
24
100
AcDbSymbolTableRecord
100
AcDbLinetypeTableRecord
  2
solid
 70
    64
  3

 72
    65
 73
     0
 40
0.0
  0
LTYPE
  5
25
100
AcDbSymbolTableRecord
100
AcDbLinetypeTableRecord
  2
dashed
 70
    64
  3

 72
    65
 73
     0
 40
0.0
  0
LTYPE
  5
26
100
AcDbSymbolTableRecord
100
AcDbLinetypeTableRecord
  2
center
 70
    64
  3

 72
    65
 73
     0
 40
0.0
  0
ENDTAB
  0
TABLE
  2
LAYER
  5
2
100
AcDbSymbolTable
 70
     2
  0
LAYER
  5
14
100
AcDbSymbolTableRecord
100
AcDbLayerTableRecord
  2
0
 70
     0
 62
     7
  6
Continuous
290
     1
370
    -3
390
1D
  0
LAYER
  5
27
100
AcDbSymbolTableRecord
100
AcDbLayerTableRecord
  2
1
 70
     0
 62
     1
  6
solid
290
     1
370
    -3
390
1D
  0
ENDTAB
  0
TABLE
  2
STYLE
  5
3
100
AcDbSymbolTable
 70
     1
  0
STYLE
  5
17
100
AcDbSymbolTableRecord
100
AcDbTextStyleTableRecord
  2
Standard
 70
     0
 40
0.0
 41
1.0
 50
0.0
 71
     0
 42
0.0
  3
txt
  4

  0
ENDTAB
  0
TABLE
  2
VIEW
  5
5
100
AcDbSymbolTable
 70
     0
  0
ENDTAB
  0
TABLE
  2
UCS
  5
6
100
AcDbSymbolTable
 70
     0
  0
ENDTAB
  0
TABLE
  2
APPID
  5
8
100
AcDbSymbolTable
 70
     1
  0
APPID
  5
16
100
AcDbSymbolTableRecord
100
AcDbRegAppTableRecord
  2
ACAD
 70
     0
  0
ENDTAB
  0
TABLE
  2
DIMSTYLE
  5
9
100
AcDbSymbolTable
 70
     1
100
AcDbDimStyleTable
 71
     0
  0
DIMSTYLE
105
18
100
AcDbSymbolTableRecord
100
AcDbDimStyleTableRecord
  2
Standard
 70
     0
  3

  4

 40
1.0
 41
0.18
 42
0.0625
 43
0.38
 44
0.18
 45
0.0
 46
0.0
 47
0.0
 48
0.0
 71
     0
 72
     0
 73
     1
 74
     1
 75
     0
 76
     0
 77
     0
 78
     0
 79
     0
140
0.18
141
0.09
142
0.0
143
25.4
144
1.0
145
0.0
146
1.0
147
0.09
148
0.0
170
     0
171
     2
172
     0
173
     0
174
     0
175
     0
176
     0
177
     0
178
     0
179
     0
271
     4
272
     4
273
     2
274
     2
275
     0
276
     0
277
     2
278
    46
279
     0
280
     0
281
     0
282
     0
283
     1
284
     0
285
     0
286
     0
288
     0
289
     3
340
17
341
0
342
0
343
0
344
0
371
    -2
372
    -2
  0
ENDTAB
  0
TABLE
  2
BLOCK_RECORD
  5
1
100
AcDbSymbolTable
 70
    14
  0
BLOCK_RECORD
  5
A
100
AcDbSymbolTableRecord
100
AcDbBlockTableRecord
  2
*MODEL_SPACE
340
20
  0
BLOCK_RECORD
  5
B
100
AcDbSymbolTableRecord
100
AcDbBlockTableRecord
  2
*PAPER_SPACE
340
21
  0
BLOCK_RECORD
  5
30
100
AcDbSymbolTableRecord
100
AcDbBlockTableRecord
  2
*D0
340
0
  0
BLOCK_RECORD
  5
39
100
AcDbSymbolTableRecord
100
AcDbBlockTableRecord
  2
*D1
340
0
  0
BLOCK_RECORD
  5
42
100
AcDbSymbolTableRecord
100
AcDbBlockTableRecord
  2
*D2
340
0
  0
BLOCK_RECORD
  5
4B
100
AcDbSymbolTableRecord
100
AcDbBlockTableRecord
  2
*D3
340
0
  0
BLOCK_RECORD
  5
54
100
AcDbSymbolTableRecord
100
AcDbBlockTableRecord
  2
*D4
340
0
  0
BLOCK_RECORD
  5
5D
100
AcDbSymbolTableRecord
100
AcDbBlockTableRecord
  2
*D5
340
0
  0
BLOCK_RECORD
  5
66
100
AcDbSymbolTableRecord
100
AcDbBlockTableRecord
  2
*D6
340
0
  0
BLOCK_RECORD
  5
71
100
AcDbSymbolTableRecord
100
AcDbBlockTableRecord
  2
*D7
340
0
  0
BLOCK_RECORD
  5
7A
100
AcDbSymbolTableRecord
100
AcDbBlockTableRecord
  2
*D8
340
0
  0
BLOCK_RECORD
  5
83
100
AcDbSymbolTableRecord
100
AcDbBlockTableRecord
  2
*D9
340
0
  0
BLOCK_RECORD
  5
8C
100
AcDbSymbolTableRecord
100
AcDbBlockTableRecord
  2
*D10
340
0
  0
BLOCK_RECORD
  5
95
100
AcDbSymbolTableRecord
100
AcDbBlockTableRecord
  2
*D11
340
0
  0
BLOCK_RECORD
  5
9E
100
AcDbSymbolTableRecord
100
AcDbBlockTableRecord
  2
*D12
340
0
  0
BLOCK_RECORD
  5
A7
100
AcDbSymbolTableRecord
100
AcDbBlockTableRecord
  2
*D13
340
0
  0
ENDTAB
  0
ENDSEC
  0
SECTION
  2
BLOCKS
  0
BLOCK
  5
D
100
AcDbEntity
  8
0
390
0
100
AcDbBlockBegin
  2
*MODEL_SPACE
 70
     0
 10
0.0
 20
0.0
 30
0.0
  3
*MODEL_SPACE
  1

  0
ENDBLK
  5
E
100
AcDbEntity
  8
0
390
0
100
AcDbBlockEnd
  0
BLOCK
  5
F
100
AcDbEntity
 67
     1
  8
0
390
0
100
AcDbBlockBegin
  2
*PAPER_SPACE
 70
     0
 10
0.0
 20
0.0
 30
0.0
  3
*PAPER_SPACE
  1

  0
ENDBLK
  5
10
100
AcDbEntity
 67
     1
  8
0
390
0
100
AcDbBlockEnd
  0
BLOCK
  5
31
100
AcDbEntity
  8
1
390
0
  6
solid
 62
     1
100
AcDbBlockBegin
  2
*D0
 70
     0
 10
0.0
 20
0.0
 30
0.0
  3
*D0
  1

  0
LINE
  5
32
100
AcDbEntity
  8
1
390
0
  6
solid
 62
     1
100
AcDbLine
 10
-2.0
 20
6.1
 30
0.0
 11
-2.0
 21
6.937254
 31
0.0
210
0.0
220
0.0
230
1.0
  0
LINE
  5
33
100
AcDbEntity
  8
1
390
0
  6
solid
 62
     1
100
AcDbLine
 10
0.0
 20
6.1
 30
0.0
 11
0.0
 21
6.937254
 31
0.0
210
0.0
220
0.0
230
1.0
  0
LINE
  5
34
100
AcDbEntity
  8
1
390
0
  6
solid
 62
     1
100
AcDbLine
 10
-2.0
 20
6.812254
 30
0.0
 11
-1.47035
 21
6.812254
 31
0.0
210
0.0
220
0.0
230
1.0
  0
LINE
  5
35
100
AcDbEntity
  8
1
390
0
  6
solid
 62
     1
100
AcDbLine
 10
0.0
 20
6.812254
 30
0.0
 11
-0.52965
 21
6.812254
 31
0.0
210
0.0
220
0.0
230
1.0
  0
MTEXT
  5
36
100
AcDbEntity
  8
1
390
0
  6
solid
 62
     1
100
AcDbMText
 10
-1.0
 20
6.812254
 30
0.0
 40
0.25
 41
0.0
 71
     5
 72
     1
  1
{\H0.250000;2.000}
210
0.0
220
0.0
230
1.0
 73
     1
 44
1.0
  0
ENDBLK
  5
37
100
AcDbEntity
  8
1
390
0
  6
solid
 62
     1
100
AcDbBlockEnd
  0
BLOCK
  5
3A
100
AcDbEntity
  8
1
390
0
  6
solid
 62
     1
100
AcDbBlockBegin
  2
*D1
 70
     0
 10
0.0
 20
0.0
 30
0.0
  3
*D1
  1

  0
LINE
  5
3B
100
AcDbEntity
  8
1
390
0
  6
solid
 62
     1
100
AcDbLine
 10
-0.375
 20
-0.475
 30
0.0
 11
-0.375
 21
-1.74701
 31
0.0
210
0.0
220
0.0
230
1.0
  0
LINE
  5
3C
100
AcDbEntity
  8
1
390
0
  6
solid
 62
     1
100
AcDbLine
 10
1.75
 20
-0.475
 30
0.0
 11
1.75
 21
-1.74701
 31
0.0
210
0.0
220
0.0
230
1.0
  0
LINE
  5
3D
100
AcDbEntity
  8
1
390
0
  6
solid
 62
     1
100
AcDbLine
 10
-0.375
 20
-1.62201
 30
0.0
 11
0.21715
 21
-1.62201
 31
0.0
210
0.0
220
0.0
230
1.0
  0
LINE
  5
3E
100
AcDbEntity
  8
1
390
0
  6
solid
 62
     1
100
AcDbLine
 10
1.75
 20
-1.62201
 30
0.0
 11
1.15785
 21
-1.62201
 31
0.0
210
0.0
220
0.0
230
1.0
  0
MTEXT
  5
3F
100
AcDbEntity
  8
1
390
0
  6
solid
 62
     1
100
AcDbMText
 10
0.6875
 20
-1.62201
 30
0.0
 40
0.25
 41
0.0
 71
     5
 72
     1
  1
{\H0.250000;2.125}
210
0.0
220
0.0
230
1.0
 73
     1
 44
1.0
  0
ENDBLK
  5
40
100
AcDbEntity
  8
1
390
0
  6
solid
 62
     1
100
AcDbBlockEnd
  0
BLOCK
  5
43
100
AcDbEntity
  8
1
390
0
  6
solid
 62
     1
100
AcDbBlockBegin
  2
*D2
 70
     0
 10
0.0
 20
0.0
 30
0.0
  3
*D2
  1

  0
LINE
  5
44
100
AcDbEntity
  8
1
390
0
  6
solid
 62
     1
100
AcDbLine
 10
1.85
 20
-0.375
 30
0.0
 11
2.757594
 21
-0.375
 31
0.0
210
0.0
220
0.0
230
1.0
  0
LINE
  5
45
100
AcDbEntity
  8
1
390
0
  6
solid
 62
     1
100
AcDbLine
 10
1.85
 20
0.75
 30
0.0
 11
2.757594
 21
0.75
 31
0.0
210
0.0
220
0.0
230
1.0
  0
LINE
  5
46
100
AcDbEntity
  8
1
390
0
  6
solid
 62
     1
100
AcDbLine
 10
2.632594
 20
-0.375
 30
0.0
 11
2.632594
 21
-0.073595
 31
0.0
210
0.0
220
0.0
230
1.0
  0
LINE
  5
47
100
AcDbEntity
  8
1
390
0
  6
solid
 62
     1
100
AcDbLine
 10
2.632594
 20
0.75
 30
0.0
 11
2.632594
 21
0.448595
 31
0.0
210
0.0
220
0.0
230
1.0
  0
MTEXT
  5
48
100
AcDbEntity
  8
1
390
0
  6
solid
 62
     1
100
AcDbMText
 10
2.632594
 20
0.1875
 30
0.0
 40
0.25
 41
0.0
 71
     5
 72
     1
  1
{\H0.250000;1.125}
210
0.0
220
0.0
230
1.0
 73
     1
 44
1.0
  0
ENDBLK
  5
49
100
AcDbEntity
  8
1
390
0
  6
solid
 62
     1
100
AcDbBlockEnd
  0
BLOCK
  5
4C
100
AcDbEntity
  8
1
390
0
  6
solid
 62
     1
100
AcDbBlockBegin
  2
*D3
 70
     0
 10
0.0
 20
0.0
 30
0.0
  3
*D3
  1

  0
LINE
  5
4D
100
AcDbEntity
  8
1
390
0
  6
solid
 62
     1
100
AcDbLine
 10
1.85
 20
-0.375
 30
0.0
 11
3.627106
 21
-0.375
 31
0.0
210
0.0
220
0.0
230
1.0
  0
LINE
  5
4E
100
AcDbEntity
  8
1
390
0
  6
solid
 62
     1
100
AcDbLine
 10
0.1
 20
6.0
 30
0.0
 11
3.627106
 21
6.0
 31
0.0
210
0.0
220
0.0
230
1.0
  0
LINE
  5
4F
100
AcDbEntity
  8
1
390
0
  6
solid
 62
     1
100
AcDbLine
 10
3.502106
 20
-0.375
 30
0.0
 11
3.502106
 21
2.973739
 31
0.0
210
0.0
220
0.0
230
1.0
  0
LINE
  5
50
100
AcDbEntity
  8
1
390
0
  6
solid
 62
     1
100
AcDbLine
 10
3.502106
 20
6.0
 30
0.0
 11
3.502106
 21
3.495929
 31
0.0
210
0.0
220
0.0
230
1.0
  0
MTEXT
  5
51
100
AcDbEntity
  8
1
390
0
  6
solid
 62
     1
100
AcDbMText
 10
3.502106
 20
3.234834
 30
0.0
 40
0.25
 41
0.0
 71
     5
 72
     1
  1
{\H0.250000;6.375}
210
0.0
220
0.0
230
1.0
 73
     1
 44
1.0
  0
ENDBLK
  5
52
100
AcDbEntity
  8
1
390
0
  6
solid
 62
     1
100
AcDbBlockEnd
  0
BLOCK
  5
55
100
AcDbEntity
  8
1
390
0
  6
solid
 62
     1
100
AcDbBlockBegin
  2
*D4
 70
     0
 10
0.0
 20
0.0
 30
0.0
  3
*D4
  1

  0
LINE
  5
56
100
AcDbEntity
  8
1
390
0
  6
solid
 62
     1
100
AcDbLine
 10
-2.1
 20
4.0
 30
0.0
 11
-3.256026
 21
4.0
 31
0.0
210
0.0
220
0.0
230
1.0
  0
LINE
  5
57
100
AcDbEntity
  8
1
390
0
  6
solid
 62
     1
100
AcDbLine
 10
-2.1
 20
6.0
 30
0.0
 11
-3.256026
 21
6.0
 31
0.0
210
0.0
220
0.0
230
1.0
  0
LINE
  5
58
100
AcDbEntity
  8
1
390
0
  6
solid
 62
     1
100
AcDbLine
 10
-3.131026
 20
4.0
 30
0.0
 11
-3.131026
 21
4.738905
 31
0.0
210
0.0
220
0.0
230
1.0
  0
LINE
  5
59
100
AcDbEntity
  8
1
390
0
  6
solid
 62
     1
100
AcDbLine
 10
-3.131026
 20
6.0
 30
0.0
 11
-3.131026
 21
5.261095
 31
0.0
210
0.0
220
0.0
230
1.0
  0
MTEXT
  5
5A
100
AcDbEntity
  8
1
390
0
  6
solid
 62
     1
100
AcDbMText
 10
-3.131026
 20
5.0
 30
0.0
 40
0.25
 41
0.0
 71
     5
 72
     1
  1
{\H0.250000;2.000}
210
0.0
220
0.0
230
1.0
 73
     1
 44
1.0
  0
ENDBLK
  5
5B
100
AcDbEntity
  8
1
390
0
  6
solid
 62
     1
100
AcDbBlockEnd
  0
BLOCK
  5
5E
100
AcDbEntity
  8
1
390
0
  6
solid
 62
     1
100
AcDbBlockBegin
  2
*D5
 70
     0
 10
0.0
 20
0.0
 30
0.0
  3
*D5
  1

  0
LINE
  5
5F
100
AcDbEntity
  8
1
390
0
  6
solid
 62
     1
100
AcDbLine
 10
-2.0
 20
6.1
 30
0.0
 11
-2.0
 21
7.611126
 31
0.0
210
0.0
220
0.0
230
1.0
  0
LINE
  5
60
100
AcDbEntity
  8
1
390
0
  6
solid
 62
     1
100
AcDbLine
 10
1.75
 20
0.85
 30
0.0
 11
1.75
 21
7.611126
 31
0.0
210
0.0
220
0.0
230
1.0
  0
LINE
  5
61
100
AcDbEntity
  8
1
390
0
  6
solid
 62
     1
100
AcDbLine
 10
-2.0
 20
7.486126
 30
0.0
 11
-0.59535
 21
7.486126
 31
0.0
210
0.0
220
0.0
230
1.0
  0
LINE
  5
62
100
AcDbEntity
  8
1
390
0
  6
solid
 62
     1
100
AcDbLine
 10
1.75
 20
7.486126
 30
0.0
 11
0.34535
 21
7.486126
 31
0.0
210
0.0
220
0.0
230
1.0
  0
MTEXT
  5
63
100
AcDbEntity
  8
1
390
0
  6
solid
 62
     1
100
AcDbMText
 10
-0.125
 20
7.486126
 30
0.0
 40
0.25
 41
0.0
 71
     5
 72
     1
  1
{\H0.250000;3.750}
210
0.0
220
0.0
230
1.0
 73
     1
 44
1.0
  0
ENDBLK
  5
64
100
AcDbEntity
  8
1
390
0
  6
solid
 62
     1
100
AcDbBlockEnd
  0
BLOCK
  5
67
100
AcDbEntity
  8
1
390
0
  6
solid
 62
     1
100
AcDbBlockBegin
  2
*D6
 70
     0
 10
0.0
 20
0.0
 30
0.0
  3
*D6
  1

  0
LINE
  5
68
100
AcDbEntity
  8
1
390
0
  6
solid
 62
     1
100
AcDbLine
 10
0.0
 20
2.6
 30
0.0
 11
0.0
 21
3.605161
 31
0.0
210
0.0
220
0.0
230
1.0
  0
LINE
  5
69
100
AcDbEntity
  8
1
390
0
  6
solid
 62
     1
100
AcDbLine
 10
1.75
 20
0.85
 30
0.0
 11
1.75
 21
3.605161
 31
0.0
210
0.0
220
0.0
230
1.0
  0
LINE
  5
6A
100
AcDbEntity
  8
1
390
0
  6
solid
 62
     1
100
AcDbLine
 10
0.0
 20
3.480161
 30
0.0
 11
0.875
 21
3.480161
 31
0.0
210
0.0
220
0.0
230
1.0
  0
LINE
  5
6B
100
AcDbEntity
  8
1
390
0
  6
solid
 62
     1
100
AcDbLine
 10
0.875
 20
3.480161
 30
0.0
 11
0.131108
 21
3.480161
 31
0.0
210
0.0
220
0.0
230
1.0
  0
LINE
  5
6C
100
AcDbEntity
  8
1
390
0
  6
solid
 62
     1
100
AcDbLine
 10
0.131108
 20
3.480161
 30
0.0
 11
-0.368892
 21
3.480161
 31
0.0
210
0.0
220
0.0
230
1.0
  0
LINE
  5
6D
100
AcDbEntity
  8
1
390
0
  6
solid
 62
     1
100
AcDbLine
 10
1.75
 20
3.480161
 30
0.0
 11
0.875
 21
3.480161
 31
0.0
210
0.0
220
0.0
230
1.0
  0
MTEXT
  5
6E
100
AcDbEntity
  8
1
390
0
  6
solid
 62
     1
100
AcDbMText
 10
-0.839242
 20
3.480161
 30
0.0
 40
0.25
 41
0.0
 71
     5
 72
     1
  1
{\H0.250000;1.750}
210
0.0
220
0.0
230
1.0
 73
     1
 44
1.0
  0
ENDBLK
  5
6F
100
AcDbEntity
  8
1
390
0
  6
solid
 62
     1
100
AcDbBlockEnd
  0
BLOCK
  5
72
100
AcDbEntity
  8
1
390
0
  6
solid
 62
     1
100
AcDbBlockBegin
  2
*D7
 70
     0
 10
0.0
 20
0.0
 30
0.0
  3
*D7
  1

  0
LINE
  5
73
100
AcDbEntity
  8
1
390
0
  6
solid
 62
     1
100
AcDbLine
 10
-0.475
 20
-0.375
 30
0.0
 11
-2.284036
 21
-0.375
 31
0.0
210
0.0
220
0.0
230
1.0
  0
LINE
  5
74
100
AcDbEntity
  8
1
390
0
  6
solid
 62
     1
100
AcDbLine
 10
-0.1
 20
2.5
 30
0.0
 11
-2.284036
 21
2.5
 31
0.0
210
0.0
220
0.0
230
1.0
  0
LINE
  5
75
100
AcDbEntity
  8
1
390
0
  6
solid
 62
     1
100
AcDbLine
 10
-2.159036
 20
-0.375
 30
0.0
 11
-2.159036
 21
1.060813
 31
0.0
210
0.0
220
0.0
230
1.0
  0
LINE
  5
76
100
AcDbEntity
  8
1
390
0
  6
solid
 62
     1
100
AcDbLine
 10
-2.159036
 20
2.5
 30
0.0
 11
-2.159036
 21
1.583004
 31
0.0
210
0.0
220
0.0
230
1.0
  0
MTEXT
  5
77
100
AcDbEntity
  8
1
390
0
  6
solid
 62
     1
100
AcDbMText
 10
-2.159036
 20
1.321908
 30
0.0
 40
0.25
 41
0.0
 71
     5
 72
     1
  1
{\H0.250000;2.875}
210
0.0
220
0.0
230
1.0
 73
     1
 44
1.0
  0
ENDBLK
  5
78
100
AcDbEntity
  8
1
390
0
  6
solid
 62
     1
100
AcDbBlockEnd
  0
BLOCK
  5
7B
100
AcDbEntity
  8
1
390
0
  6
solid
 62
     1
100
AcDbBlockBegin
  2
*D8
 70
     0
 10
0.0
 20
0.0
 30
0.0
  3
*D8
  1

  0
LINE
  5
7C
100
AcDbEntity
  8
1
390
0
  6
solid
 62
     1
100
AcDbLine
 10
-0.143778
 20
2.37965
 30
0.0
 11
0.0
 21
2.5
 31
0.0
210
0.0
220
0.0
230
1.0
  0
LINE
  5
7D
100
AcDbEntity
  8
1
390
0
  6
solid
 62
     1
100
AcDbLine
 10
0.0
 20
2.5
 30
0.0
 11
-0.793926
 21
1.835443
 31
0.0
210
0.0
220
0.0
230
1.0
  0
LINE
  5
7E
100
AcDbEntity
  8
1
390
0
  6
solid
 62
     1
100
AcDbLine
 10
-0.793926
 20
1.835443
 30
0.0
 11
-0.293926
 21
1.835443
 31
0.0
210
0.0
220
0.0
230
1.0
  0
LINE
  5
7F
100
AcDbEntity
  8
1
390
0
  6
solid
 62
     1
100
AcDbLine
 10
0.143778
 20
2.62035
 30
0.0
 11
0.0
 21
2.5
 31
0.0
210
0.0
220
0.0
230
1.0
  0
MTEXT
  5
80
100
AcDbEntity
  8
1
390
0
  6
solid
 62
     1
100
AcDbMText
 10
0.326424
 20
1.835443
 30
0.0
 40
0.25
 41
0.0
 71
     5
 72
     1
  1
{\H0.250000;%%C 0.375}
210
0.0
220
0.0
230
1.0
 73
     1
 44
1.0
  0
ENDBLK
  5
81
100
AcDbEntity
  8
1
390
0
  6
solid
 62
     1
100
AcDbBlockEnd
  0
BLOCK
  5
84
100
AcDbEntity
  8
1
390
0
  6
solid
 62
     1
100
AcDbBlockBegin
  2
*D9
 70
     0
 10
0.0
 20
0.0
 30
0.0
  3
*D9
  1

  0
LINE
  5
85
100
AcDbEntity
  8
1
390
0
  6
solid
 62
     1
100
AcDbLine
 10
0.0
 20
6.1
 30
0.0
 11
0.0
 21
6.926602
 31
0.0
210
0.0
220
0.0
230
1.0
  0
LINE
  5
86
100
AcDbEntity
  8
1
390
0
  6
solid
 62
     1
100
AcDbLine
 10
1.75
 20
0.85
 30
0.0
 11
1.75
 21
6.926602
 31
0.0
210
0.0
220
0.0
230
1.0
  0
LINE
  5
87
100
AcDbEntity
  8
1
390
0
  6
solid
 62
     1
100
AcDbLine
 10
0.0
 20
6.801602
 30
0.0
 11
0.243505
 21
6.801602
 31
0.0
210
0.0
220
0.0
230
1.0
  0
LINE
  5
88
100
AcDbEntity
  8
1
390
0
  6
solid
 62
     1
100
AcDbLine
 10
1.75
 20
6.801602
 30
0.0
 11
1.184205
 21
6.801602
 31
0.0
210
0.0
220
0.0
230
1.0
  0
MTEXT
  5
89
100
AcDbEntity
  8
1
390
0
  6
solid
 62
     1
100
AcDbMText
 10
0.713855
 20
6.801602
 30
0.0
 40
0.25
 41
0.0
 71
     5
 72
     1
  1
{\H0.250000;1.750}
210
0.0
220
0.0
230
1.0
 73
     1
 44
1.0
  0
ENDBLK
  5
8A
100
AcDbEntity
  8
1
390
0
  6
solid
 62
     1
100
AcDbBlockEnd
  0
BLOCK
  5
8D
100
AcDbEntity
  8
1
390
0
  6
solid
 62
     1
100
AcDbBlockBegin
  2
*D10
 70
     0
 10
0.0
 20
0.0
 30
0.0
  3
*D10
  1

  0
LINE
  5
8E
100
AcDbEntity
  8
1
390
0
  6
solid
 62
     1
100
AcDbLine
 10
1.485146
 20
1.544562
 30
0.0
 11
1.485146
 21
1.544562
 31
0.0
210
0.0
220
0.0
230
1.0
  0
LINE
  5
8F
100
AcDbEntity
  8
1
390
0
  6
solid
 62
     1
100
AcDbLine
 10
1.75
 20
-0.087542
 30
0.0
 11
1.75
 21
-0.087542
 31
0.0
210
0.0
220
0.0
230
1.0
  0
ARC
  5
90
100
AcDbEntity
  8
1
390
0
  6
solid
 62
     1
100
AcDbCircle
 10
1.75
 20
0.75
 30
0.0
 40
0.837542
210
0.0
220
0.0
230
1.0
100
AcDbArc
 50
108.434949
 51
162.796015
  0
ARC
  5
91
100
AcDbEntity
  8
1
390
0
  6
solid
 62
     1
100
AcDbCircle
 10
1.75
 20
0.75
 30
0.0
 40
0.837542
210
0.0
220
0.0
230
1.0
100
AcDbArc
 50
191.474716
 51
270.0
  0
MTEXT
  5
92
100
AcDbEntity
  8
1
390
0
  6
solid
 62
     1
100
AcDbMText
 10
0.91344
 20
0.790553
 30
0.0
 40
0.25
 41
0.0
 71
     5
 72
     1
  1
{\H0.250000;161.57%%D}
210
0.0
220
0.0
230
1.0
 73
     1
 44
1.0
  0
ENDBLK
  5
93
100
AcDbEntity
  8
1
390
0
  6
solid
 62
     1
100
AcDbBlockEnd
  0
BLOCK
  5
96
100
AcDbEntity
  8
1
390
0
  6
solid
 62
     1
100
AcDbBlockBegin
  2
*D11
 70
     0
 10
0.0
 20
0.0
 30
0.0
  3
*D11
  1

  0
LINE
  5
97
100
AcDbEntity
  8
1
390
0
  6
solid
 62
     1
100
AcDbLine
 10
0.506833
 20
-0.375
 30
0.0
 11
0.506833
 21
-0.375
 31
0.0
210
0.0
220
0.0
230
1.0
  0
LINE
  5
98
100
AcDbEntity
  8
1
390
0
  6
solid
 62
     1
100
AcDbLine
 10
-0.682042
 20
0.451653
 30
0.0
 11
-0.682042
 21
0.451653
 31
0.0
210
0.0
220
0.0
230
1.0
  0
ARC
  5
99
100
AcDbEntity
  8
1
390
0
  6
solid
 62
     1
100
AcDbCircle
 10
-0.375
 20
-0.375
 30
0.0
 40
0.881833
210
0.0
220
0.0
230
1.0
100
AcDbArc
 50
0.0
 51
35.880779
  0
ARC
  5
9A
100
AcDbEntity
  8
1
390
0
  6
solid
 62
     1
100
AcDbCircle
 10
-0.375
 20
-0.375
 30
0.0
 40
0.881833
210
0.0
220
0.0
230
1.0
100
AcDbArc
 50
94.096943
 51
110.376435
  0
MTEXT
  5
9B
100
AcDbEntity
  8
1
390
0
  6
solid
 62
     1
100
AcDbMText
 10
0.128423
 20
0.349013
 30
0.0
 40
0.25
 41
0.0
 71
     5
 72
     1
  1
{\H0.250000;110.38%%D}
210
0.0
220
0.0
230
1.0
 73
     1
 44
1.0
  0
ENDBLK
  5
9C
100
AcDbEntity
  8
1
390
0
  6
solid
 62
     1
100
AcDbBlockEnd
  0
BLOCK
  5
9F
100
AcDbEntity
  8
1
390
0
  6
solid
 62
     1
100
AcDbBlockBegin
  2
*D12
 70
     0
 10
0.0
 20
0.0
 30
0.0
  3
*D12
  1

  0
LINE
  5
A0
100
AcDbEntity
  8
1
390
0
  6
solid
 62
     1
100
AcDbLine
 10
-0.737182
 20
6.0
 30
0.0
 11
-0.737182
 21
6.0
 31
0.0
210
0.0
220
0.0
230
1.0
  0
LINE
  5
A1
100
AcDbEntity
  8
1
390
0
  6
solid
 62
     1
100
AcDbLine
 10
0.233117
 20
5.300648
 30
0.0
 11
0.233117
 21
5.300648
 31
0.0
210
0.0
220
0.0
230
1.0
  0
ARC
  5
A2
100
AcDbEntity
  8
1
390
0
  6
solid
 62
     1
100
AcDbCircle
 10
0.0
 20
6.0
 30
0.0
 40
0.737182
210
0.0
220
0.0
230
1.0
100
AcDbArc
 50
180.0
 51
198.646894
  0
ARC
  5
A3
100
AcDbEntity
  8
1
390
0
  6
solid
 62
     1
100
AcDbCircle
 10
0.0
 20
6.0
 30
0.0
 40
0.737182
210
0.0
220
0.0
230
1.0
100
AcDbArc
 50
241.85967
 51
288.434949
  0
MTEXT
  5
A4
100
AcDbEntity
  8
1
390
0
  6
solid
 62
     1
100
AcDbMText
 10
-0.589322
 20
5.557127
 30
0.0
 40
0.25
 41
0.0
 71
     5
 72
     1
  1
{\H0.250000;108.43%%D}
210
0.0
220
0.0
230
1.0
 73
     1
 44
1.0
  0
ENDBLK
  5
A5
100
AcDbEntity
  8
1
390
0
  6
solid
 62
     1
100
AcDbBlockEnd
  0
BLOCK
  5
A8
100
AcDbEntity
  8
1
390
0
  6
solid
 62
     1
100
AcDbBlockBegin
  2
*D13
 70
     0
 10
0.0
 20
0.0
 30
0.0
  3
*D13
  1

  0
LINE
  5
A9
100
AcDbEntity
  8
1
390
0
  6
solid
 62
     1
100
AcDbLine
 10
-1.736342
 20
3.290152
 30
0.0
 11
-1.736342
 21
3.290152
 31
0.0
210
0.0
220
0.0
230
1.0
  0
LINE
  5
AA
100
AcDbEntity
  8
1
390
0
  6
solid
 62
     1
100
AcDbLine
 10
-2.0
 20
4.757232
 30
0.0
 11
-2.0
 21
4.757232
 31
0.0
210
0.0
220
0.0
230
1.0
  0
ARC
  5
AB
100
AcDbEntity
  8
1
390
0
  6
solid
 62
     1
100
AcDbCircle
 10
-2.0
 20
4.0
 30
0.0
 40
0.757232
210
0.0
220
0.0
230
1.0
100
AcDbArc
 50
290.376435
 51
354.45045
  0
ARC
  5
AC
100
AcDbEntity
  8
1
390
0
  6
solid
 62
     1
100
AcDbCircle
 10
-2.0
 20
4.0
 30
0.0
 40
0.757232
210
0.0
220
0.0
230
1.0
100
AcDbArc
 50
26.773922
 51
90.0
  0
MTEXT
  5
AD
100
AcDbEntity
  8
1
390
0
  6
solid
 62
     1
100
AcDbMText
 10
-1.254708
 20
4.133941
 30
0.0
 40
0.25
 41
0.0
 71
     5
 72
     1
  1
{\H0.250000;159.62%%D}
210
0.0
220
0.0
230
1.0
 73
     1
 44
1.0
  0
ENDBLK
  5
AE
100
AcDbEntity
  8
1
390
0
  6
solid
 62
     1
100
AcDbBlockEnd
  0
ENDSEC
  0
SECTION
  2
ENTITIES
  0
LINE
  5
28
100
AcDbEntity
  8
1
390
0
  6
solid
 62
     3
100
AcDbLine
 10
-0.375
 20
-0.375
 30
0.0
 11
-2.0
 21
4.0
 31
0.0
  0
LINE
  5
29
100
AcDbEntity
  8
1
390
0
  6
solid
 62
     3
100
AcDbLine
 10
1.75
 20
-0.375
 30
0.0
 11
1.75
 21
0.75
 31
0.0
  0
LINE
  5
2A
100
AcDbEntity
  8
1
390
0
  6
solid
 62
     3
100
AcDbLine
 10
1.75
 20
0.75
 30
0.0
 11
0.0
 21
6.0
 31
0.0
  0
LINE
  5
2B
100
AcDbEntity
  8
1
390
0
  6
solid
 62
     3
100
AcDbLine
 10
-2.0
 20
4.0
 30
0.0
 11
-2.0
 21
6.0
 31
0.0
  0
LINE
  5
2C
100
AcDbEntity
  8
1
390
0
  6
solid
 62
     3
100
AcDbLine
 10
-2.0
 20
6.0
 30
0.0
 11
0.0
 21
6.0
 31
0.0
  0
LINE
  5
2D
100
AcDbEntity
  8
1
390
0
  6
solid
 62
     3
100
AcDbLine
 10
-0.375
 20
-0.375
 30
0.0
 11
1.75
 21
-0.375
 31
0.0
  0
POINT
  5
2E
100
AcDbEntity
  8
1
390
0
  6
solid
 62
     3
100
AcDbPoint
 10
0.0
 20
2.5
 30
0.0
  0
CIRCLE
  5
2F
100
AcDbEntity
  8
1
390
0
  6
solid
 62
     3
100
AcDbCircle
 10
0.0
 20
2.5
 30
0.0
 40
0.1875
210
0.0
220
0.0
230
1.0
  0
DIMENSION
  5
38
100
AcDbEntity
  8
1
390
0
  6
solid
 62
     1
100
AcDbDimension
  2
*D0
 10
-1.0
 20
6.812254
 30
0.0
 11
-1.0
 21
6.812254
 31
0.0
 70
     1
 71
     5
 72
     1
 41
1.0
 42
2.0
210
0.0
220
0.0
230
1.0
  3
Standard
100
AcDbAlignedDimension
 13
0.0
 23
6.0
 33
0.0
 14
-2.0
 24
6.0
 34
0.0
1001
ACAD
1000
DSTYLE
1002
{
1070
    41
1040
0.25
1070
    42
1040
0.1
1070
    44
1040
0.125
1070
    47
1040
0.0005
1070
    48
1040
0.0005
1070
    78
1070
     1
1070
   140
1040
0.25
1070
   146
1040
0.5
1070
   271
1070
     3
1070
   272
1070
     3
1070
   284
1070
     1
1002
}
  0
DIMENSION
  5
41
100
AcDbEntity
  8
1
390
0
  6
solid
 62
     1
100
AcDbDimension
  2
*D1
 10
0.6875
 20
-1.62201
 30
0.0
 11
0.6875
 21
-1.62201
 31
0.0
 70
     1
 71
     5
 72
     1
 41
1.0
 42
2.125
210
0.0
220
0.0
230
1.0
  3
Standard
100
AcDbAlignedDimension
 13
-0.375
 23
-0.375
 33
0.0
 14
1.75
 24
-0.375
 34
0.0
1001
ACAD
1000
DSTYLE
1002
{
1070
    41
1040
0.25
1070
    42
1040
0.1
1070
    44
1040
0.125
1070
    47
1040
0.0005
1070
    48
1040
0.0005
1070
    78
1070
     1
1070
   140
1040
0.25
1070
   146
1040
0.5
1070
   271
1070
     3
1070
   272
1070
     3
1070
   284
1070
     1
1002
}
  0
DIMENSION
  5
4A
100
AcDbEntity
  8
1
390
0
  6
solid
 62
     1
100
AcDbDimension
  2
*D2
 10
2.632594
 20
0.1875
 30
0.0
 11
2.632594
 21
0.1875
 31
0.0
 70
     1
 71
     5
 72
     1
 41
1.0
 42
1.125
210
0.0
220
0.0
230
1.0
  3
Standard
100
AcDbAlignedDimension
 13
1.75
 23
-0.375
 33
0.0
 14
1.75
 24
0.75
 34
0.0
1001
ACAD
1000
DSTYLE
1002
{
1070
    41
1040
0.25
1070
    42
1040
0.1
1070
    44
1040
0.125
1070
    47
1040
0.0005
1070
    48
1040
0.0005
1070
    78
1070
     1
1070
   140
1040
0.25
1070
   146
1040
0.5
1070
   271
1070
     3
1070
   272
1070
     3
1070
   284
1070
     1
1002
}
  0
DIMENSION
  5
53
100
AcDbEntity
  8
1
390
0
  6
solid
 62
     1
100
AcDbDimension
  2
*D3
 10
3.502106
 20
3.234834
 30
0.0
 11
3.502106
 21
3.234834
 31
0.0
 71
     5
 72
     1
 41
1.0
 42
6.375
210
0.0
220
0.0
230
1.0
  3
Standard
100
AcDbAlignedDimension
 13
1.75
 23
-0.375
 33
0.0
 14
0.0
 24
6.0
 34
0.0
 50
90.0
100
AcDbRotatedDimension
1001
ACAD
1000
DSTYLE
1002
{
1070
    41
1040
0.25
1070
    42
1040
0.1
1070
    44
1040
0.125
1070
    47
1040
0.0005
1070
    48
1040
0.0005
1070
    78
1070
     1
1070
   140
1040
0.25
1070
   146
1040
0.5
1070
   271
1070
     3
1070
   272
1070
     3
1070
   284
1070
     1
1002
}
  0
DIMENSION
  5
5C
100
AcDbEntity
  8
1
390
0
  6
solid
 62
     1
100
AcDbDimension
  2
*D4
 10
-3.131026
 20
5.0
 30
0.0
 11
-3.131026
 21
5.0
 31
0.0
 70
     1
 71
     5
 72
     1
 41
1.0
 42
2.0
210
0.0
220
0.0
230
1.0
  3
Standard
100
AcDbAlignedDimension
 13
-2.0
 23
6.0
 33
0.0
 14
-2.0
 24
4.0
 34
0.0
1001
ACAD
1000
DSTYLE
1002
{
1070
    41
1040
0.25
1070
    42
1040
0.1
1070
    44
1040
0.125
1070
    47
1040
0.0005
1070
    48
1040
0.0005
1070
    78
1070
     1
1070
   140
1040
0.25
1070
   146
1040
0.5
1070
   271
1070
     3
1070
   272
1070
     3
1070
   284
1070
     1
1002
}
  0
DIMENSION
  5
65
100
AcDbEntity
  8
1
390
0
  6
solid
 62
     1
100
AcDbDimension
  2
*D5
 10
-0.125
 20
7.486126
 30
0.0
 11
-0.125
 21
7.486126
 31
0.0
 71
     5
 72
     1
 41
1.0
 42
3.75
210
0.0
220
0.0
230
1.0
  3
Standard
100
AcDbAlignedDimension
 13
1.75
 23
0.75
 33
0.0
 14
-2.0
 24
6.0
 34
0.0
100
AcDbRotatedDimension
1001
ACAD
1000
DSTYLE
1002
{
1070
    41
1040
0.25
1070
    42
1040
0.1
1070
    44
1040
0.125
1070
    47
1040
0.0005
1070
    48
1040
0.0005
1070
    78
1070
     1
1070
   140
1040
0.25
1070
   146
1040
0.5
1070
   271
1070
     3
1070
   272
1070
     3
1070
   284
1070
     1
1002
}
  0
DIMENSION
  5
70
100
AcDbEntity
  8
1
390
0
  6
solid
 62
     1
100
AcDbDimension
  2
*D6
 10
-0.839242
 20
3.480161
 30
0.0
 11
-0.839242
 21
3.480161
 31
0.0
 71
     5
 72
     1
 41
1.0
 42
1.75
210
0.0
220
0.0
230
1.0
  3
Standard
100
AcDbAlignedDimension
 13
1.75
 23
0.75
 33
0.0
 14
0.0
 24
2.5
 34
0.0
100
AcDbRotatedDimension
1001
ACAD
1000
DSTYLE
1002
{
1070
    41
1040
0.25
1070
    42
1040
0.1
1070
    44
1040
0.125
1070
    47
1040
0.0005
1070
    48
1040
0.0005
1070
    78
1070
     1
1070
   140
1040
0.25
1070
   146
1040
0.5
1070
   271
1070
     3
1070
   272
1070
     3
1070
   284
1070
     1
1002
}
  0
DIMENSION
  5
79
100
AcDbEntity
  8
1
390
0
  6
solid
 62
     1
100
AcDbDimension
  2
*D7
 10
-2.159036
 20
1.321908
 30
0.0
 11
-2.159036
 21
1.321908
 31
0.0
 71
     5
 72
     1
 41
1.0
 42
2.875
210
0.0
220
0.0
230
1.0
  3
Standard
100
AcDbAlignedDimension
 13
-0.375
 23
-0.375
 33
0.0
 14
0.0
 24
2.5
 34
0.0
 50
90.0
100
AcDbRotatedDimension
1001
ACAD
1000
DSTYLE
1002
{
1070
    41
1040
0.25
1070
    42
1040
0.1
1070
    44
1040
0.125
1070
    47
1040
0.0005
1070
    48
1040
0.0005
1070
    78
1070
     1
1070
   140
1040
0.25
1070
   146
1040
0.5
1070
   271
1070
     3
1070
   272
1070
     3
1070
   284
1070
     1
1002
}
  0
DIMENSION
  5
82
100
AcDbEntity
  8
1
390
0
  6
solid
 62
     1
100
AcDbDimension
  2
*D8
 10
0.143778
 20
2.62035
 30
0.0
 11
0.326424
 21
1.835443
 31
0.0
 70
     3
 71
     5
 72
     1
 41
1.0
 42
0.375
210
0.0
220
0.0
230
1.0
  3
Standard
100
AcDbDiametricDimension
 15
-0.143778
 25
2.37965
 35
0.0
 40
0.0
 50
90.0
1001
ACAD
1000
DSTYLE
1002
{
1070
    41
1040
0.25
1070
    42
1040
0.1
1070
    44
1040
0.125
1070
    47
1040
0.0005
1070
    48
1040
0.0005
1070
    75
1070
     1
1070
    76
1070
     1
1070
    78
1070
     1
1070
   140
1040
0.25
1070
   146
1040
0.5
1070
   271
1070
     3
1070
   272
1070
     3
1070
   284
1070
     1
1002
}
  0
DIMENSION
  5
8B
100
AcDbEntity
  8
1
390
0
  6
solid
 62
     1
100
AcDbDimension
  2
*D9
 10
0.713855
 20
6.801602
 30
0.0
 11
0.713855
 21
6.801602
 31
0.0
 71
     5
 72
     1
 41
1.0
 42
1.75
210
0.0
220
0.0
230
1.0
  3
Standard
100
AcDbAlignedDimension
 13
1.75
 23
0.75
 33
0.0
 14
0.0
 24
6.0
 34
0.0
100
AcDbRotatedDimension
1001
ACAD
1000
DSTYLE
1002
{
1070
    41
1040
0.25
1070
    42
1040
0.1
1070
    44
1040
0.125
1070
    47
1040
0.0005
1070
    48
1040
0.0005
1070
    78
1070
     1
1070
   140
1040
0.25
1070
   146
1040
0.5
1070
   271
1070
     3
1070
   272
1070
     3
1070
   284
1070
     1
1002
}
  0
DIMENSION
  5
94
100
AcDbEntity
  8
1
390
0
  6
solid
 62
     1
100
AcDbDimension
  2
*D10
 10
1.75
 20
0.75
 30
0.0
 11
0.91344
 21
0.790553
 31
0.0
 70
     2
 71
     5
 72
     1
 41
1.0
 42
2.819842
210
0.0
220
0.0
230
1.0
  3
Standard
100
AcDb2LineAngularDimension
 13
1.75
 23
-0.375
 33
0.0
 14
1.75
 24
0.75
 34
0.0
 15
0.0
 25
6.0
 35
0.0
 16
0.91344
 26
0.790553
 36
0.0
1001
ACAD
1000
DSTYLE
1002
{
1070
    41
1040
0.25
1070
    42
1040
0.1
1070
    44
1040
0.125
1070
    47
1040
0.0005
1070
    48
1040
0.0005
1070
    79
1070
     1
1070
   140
1040
0.25
1070
   146
1040
0.5
1070
   179
1070
     2
1070
   272
1070
     2
1070
   284
1070
     1
1002
}
  0
DIMENSION
  5
9D
100
AcDbEntity
  8
1
390
0
  6
solid
 62
     1
100
AcDbDimension
  2
*D11
 10
-0.375
 20
-0.375
 30
0.0
 11
0.128423
 21
0.349013
 31
0.0
 70
     2
 71
     5
 72
     1
 41
1.0
 42
1.926432
210
0.0
220
0.0
230
1.0
  3
Standard
100
AcDb2LineAngularDimension
 13
-0.375
 23
-0.375
 33
0.0
 14
1.75
 24
-0.375
 34
0.0
 15
-2.0
 25
4.0
 35
0.0
 16
0.128423
 26
0.349013
 36
0.0
1001
ACAD
1000
DSTYLE
1002
{
1070
    41
1040
0.25
1070
    42
1040
0.1
1070
    44
1040
0.125
1070
    47
1040
0.0005
1070
    48
1040
0.0005
1070
    79
1070
     1
1070
   140
1040
0.25
1070
   146
1040
0.5
1070
   174
1070
     1
1070
   179
1070
     2
1070
   272
1070
     2
1070
   284
1070
     1
1002
}
  0
DIMENSION
  5
A6
100
AcDbEntity
  8
1
390
0
  6
solid
 62
     1
100
AcDbDimension
  2
*D12
 10
-2.0
 20
6.0
 30
0.0
 11
-0.589322
 21
5.557127
 31
0.0
 70
     2
 71
     5
 72
     1
 41
1.0
 42
1.892547
210
0.0
220
0.0
230
1.0
  3
Standard
100
AcDb2LineAngularDimension
 13
1.75
 23
0.75
 33
0.0
 14
0.0
 24
6.0
 34
0.0
 15
0.0
 25
6.0
 35
0.0
 16
-0.589322
 26
5.557127
 36
0.0
1001
ACAD
1000
DSTYLE
1002
{
1070
    41
1040
0.25
1070
    42
1040
0.1
1070
    44
1040
0.125
1070
    47
1040
0.0005
1070
    48
1040
0.0005
1070
    79
1070
     1
1070
   140
1040
0.25
1070
   146
1040
0.5
1070
   179
1070
     2
1070
   272
1070
     2
1070
   284
1070
     1
1002
}
  0
DIMENSION
  5
AF
100
AcDbEntity
  8
1
390
0
  6
solid
 62
     1
100
AcDbDimension
  2
*D13
 10
-2.0
 20
4.0
 30
0.0
 11
-1.254708
 21
4.133941
 31
0.0
 70
     2
 71
     5
 72
     1
 41
1.0
 42
2.785957
210
0.0
220
0.0
230
1.0
  3
Standard
100
AcDb2LineAngularDimension
 13
-0.375
 23
-0.375
 33
0.0
 14
-2.0
 24
4.0
 34
0.0
 15
-2.0
 25
6.0
 35
0.0
 16
-1.254708
 26
4.133941
 36
0.0
1001
ACAD
1000
DSTYLE
1002
{
1070
    41
1040
0.25
1070
    42
1040
0.1
1070
    44
1040
0.125
1070
    47
1040
0.0005
1070
    48
1040
0.0005
1070
    79
1070
     1
1070
   140
1040
0.25
1070
   146
1040
0.5
1070
   174
1070
     1
1070
   179
1070
     2
1070
   272
1070
     2
1070
   284
1070
     1
1002
}
  0
MTEXT
  5
B0
100
AcDbEntity
  8
1
390
0
  6
solid
 62
     1
100
AcDbMText
 10
-3.794432
 20
2.7895
 30
0.0
 40
0.25
 41
2.2125
 71
     7
 72
     1
  1
1/4" thick^M\Pacrylic
 73
     1
 44
1.0
  0
ENDSEC
  0
SECTION
  2
OBJECTS
  0
DICTIONARY
  5
19
100
AcDbDictionary
280
     0
281
     1
  3
ACAD_GROUP
350
1A
  3
ACAD_MLINESTYLE
350
1B
  3
ACAD_LAYOUT
350
1E
  3
ACAD_PLOTSETTINGS
350
22
  3
ACAD_PLOTSTYLENAME
350
1F
  3
ACAD_WIPEOUT_VARS
350
23
  0
DICTIONARY
  5
1A
102
{ACAD_REACTORS
330
19
102
}
100
AcDbDictionary
280
     0
281
     1
  0
DICTIONARY
  5
1B
102
{ACAD_REACTORS
330
19
102
}
100
AcDbDictionary
280
     0
281
     1
  3
Standard
350
1C
  0
MLINESTYLE
  5
1C
102
{ACAD_REACTORS
330
1B
102
}
100
AcDbMlineStyle
  2
Standard
 70
     0
  3

 62
     0
 51
90.0
 52
90.0
 71
     2
 49
0.5
 62
   256
  6
ByLayer
 49
-0.5
 62
   256
  6
ByLayer
  0
ACDBDICTIONARYWDFLT
  5
1F
102
{ACAD_REACTORS
330
19
102
}
100
AcDbDictionary
281
     1
  3
Normal
350
1D
100
AcDbDictionaryWithDefault
340
1D
  0
ACDBPLACEHOLDER
  5
1D
102
{ACAD_REACTORS
330
1F
102
}
  0
LAYOUT
  5
20
102
{ACAD_REACTORS
330
1E
102
}
100
AcDbPlotSettings
  1

  2

  4

  6

 40
0.0
 41
0.0
 42
0.0
 43
0.0
 44
0.0
 45
0.0
 46
0.0
 47
0.0
 48
0.0
 49
0.0
140
0.0
141
0.0
142
1.0
143
1.0
 70
  1024
 72
     0
 73
     0
 74
     0
  7

 75
     0
147
1.0
148
0.0
149
0.0
100
AcDbLayout
  1
Model
 70
     0
 71
     0
 10
0.0
 20
0.0
 11
0.0
 21
0.0
 12
0.0
 22
0.0
 32
0.0
 14
0.0
 24
0.0
 34
0.0
 15
0.0
 25
0.0
 35
0.0
146
0.0
 13
0.0
 23
0.0
 33
0.0
 16
0.0
 26
0.0
 36
0.0
 17
0.0
 27
0.0
 37
0.0
 76
     0
330
A
331
0
345
0
346
0
  0
LAYOUT
  5
21
102
{ACAD_REACTORS
330
1E
102
}
100
AcDbPlotSettings
  1

  2

  4

  6

 40
0.0
 41
0.0
 42
0.0
 43
0.0
 44
0.0
 45
0.0
 46
0.0
 47
0.0
 48
0.0
 49
0.0
140
0.0
141
0.0
142
1.0
143
1.0
 70
     0
 72
     0
 73
     0
 74
     0
  7

 75
     0
147
1.0
148
0.0
149
0.0
100
AcDbLayout
  1
Layout1
 70
     0
 71
     0
 10
0.0
 20
0.0
 11
0.0
 21
0.0
 12
0.0
 22
0.0
 32
0.0
 14
0.0
 24
0.0
 34
0.0
 15
0.0
 25
0.0
 35
0.0
146
0.0
 13
0.0
 23
0.0
 33
0.0
 16
0.0
 26
0.0
 36
0.0
 17
0.0
 27
0.0
 37
0.0
 76
     0
330
B
331
0
345
0
346
0
  0
DICTIONARY
  5
1E
102
{ACAD_REACTORS
330
19
102
}
100
AcDbDictionary
280
     0
281
     1
  3
Layout1
350
21
  3
Model
350
20
  0
DICTIONARY
  5
22
102
{ACAD_REACTORS
330
19
102
}
100
AcDbDictionary
280
     0
281
     1
  0
WIPEOUTVARIABLES
  5
23
100
AcDbWipeoutVariables
 70
     1
  0
ENDSEC
  0
EOF
